查看: 38202|回复: 33
上一主题 下一主题 跳转到指定楼层

[小圆脸无损音乐整理(全部更新115)][更新至CD6][填坑完毕]

431

主题

1172

存在感

377

活跃日
帅哥离线 已死
 8 

SOS团五星级★★★★★

发帖: 8843
SOS币: 394
社团: ☆折原☆波江姐应援团
社团: 摔C3同好会
注册: 2010-03-26
访问: 2021-03-11

楼主
发表于 2011/05/05 | 编辑

猜你喜欢: snow falling 无损


虽然这些资源非原创,但我都重传了115,所以一旦过期请在下载页面点击请求续期,我能看得到。。



op ed的320k已经有了。。我就把角色CD自传了一下320k
op:
[SINGLE][魔法少女小圆OP] コネクト ClariS 110202 wav 附BK
图片需登录后查看

PERFORMER "ClariS"
TITLE "ClariS - コネクト"
FILE "CDImage.wav" WAVE
TRACK 01 AUDIO
   TITLE "コネクト"
   PERFORMER "ClariS"
   INDEX 01 00:00:00
TRACK 02 AUDIO
   TITLE "Dreamin'"
   PERFORMER "ClariS"
   INDEX 00 04:27:73
   INDEX 01 04:31:55
TRACK 03 AUDIO
   TITLE "キミとふたり"
   PERFORMER "ClariS"
   INDEX 00 09:05:50
   INDEX 01 09:08:70
TRACK 04 AUDIO
   TITLE "コネクト -TV MIX-"
   PERFORMER "ClariS"
   INDEX 00 13:18:62
   INDEX 01 13:23:45

[此贴售价 0 SOS币,已有 351 人购买]

若发现会员采用欺骗的方法获取财富,请立刻举报,我们会对会员处以2-N倍的罚金,严重者封掉ID!


ED:[SINGLE][魔法少女小圆ED -Magia初回限定版] kalafina 110216 wav 含BK
图片需登录后查看

CD (2011/2/16)

ディスク枚数: 2
フォーマット: Single, CD+DVD, Limited Edition, Maxi
レーベル: SME
収录时间: 15 分

内容绍介
Kalafina の绝妙なコーラスワーク!!

今回のKalafinaのニューシングルは2011年1月からスタートするTVアニメ「魔法少女まどが☆マギア」エンディング曲となっています。タイトルの「Magia」はラテン语で「Magic」、魔法という意味です。久々にアップテンポでハードな今回の楽曲は1度聴いたら忘れられないものとなっています。

◆2011年1月スタートTVアニメ「魔法少女まどが☆マギア」エンディング曲

曲目リスト

1. Magia    

2. snow falling    

3. Magia ~instrumental~

[此贴售价 0 SOS币,已有 351 人购买]

若发现会员采用欺骗的方法获取财富,请立刻举报,我们会对会员处以2-N倍的罚金,严重者封掉ID!


角色CD1:鹿目圆香
收录曲目:
1.平松正樹、虚淵玄 (ドラマ) - Memories of you
2.鹿目まどか(CV_ 悠木碧) - また あした
3.“hanawaya - また あした (Instrumental)

[此贴售价 0 SOS币,已有 351 人购买]